Filecrypt zeigt vereinzelt Files als "n/a". Die Downloads sind trotzdem komplett.

DNS SERVER AENDERNum der staatlichen Zensur zu umgehen. Sollten wir von eurem Provider geseprrt werden, nutzt den TOR BROWSER oder ändert euren DNS SERVER.

Filmwünsche können bei uns im Forum abgegeben werden

Wir Speichern Nicht




 
 
 
Top Releases
Oceans.8.2018.German.AC3.DL....
Constantine.City.of.Demons.2...
Meg.2018.German.Dubbed.RETAi...
Meg.2018.German.Dubbed.RETAi...
Die.Unglaublichen.2.2018.Ger...
Logan.Noir.Edition.2017.MULT...
Hotel.Artemis.2018.German.AC...
Ant-Man.2015.German.AC3.DL.1...
In.den.Gaengen.2018.German.A...
Oceans.8.2018.MULTi.COMPLETE...

Cinedubs
10x10.2018.German.AC3D.DL.10...
Predator.Upgrade.German.DL.A...
Predator.Upgrade.German.DL.A...
10×10.2018.German.AC3D.DL.1...
10×10.2018.German.AC3D.DL.7...
Sicario.2.German.DL.AC3.Dubb...
Sicario.2.German.DL.AC3.Dubb...
Hotel.Artemis.German.DL.AC3....
Mission.Impossible.Fallout.2...
Mission.Impossible.Fallout.2...

Neuerscheinungen 2017-18
Ein.gewisser.Herr.Gran.1933....
Vampire.gegen.Herakles.The.V...
Steig.Nicht.Aus.2018.German....
Der.Falke.und.der.Schneemann...
Gate.Die.Unterirdischen.1987...
Hostile.2017.DUAL.COMPLETE.B...
Stoppt.die.Todesfahrt.der.U-...
Zorro.1975.MULTi.COMPLETE.BL...
Meg.The.Meg.2018.COMPLETE.UH...
Skin.Creepers.2018.GERMAN.CO...

XXX
FoxxedUp.18.10.23.Eden.Sin.C...
DogHouseDigital.18.10.28.Cha...
FakeTaxi.18.10.31.Rhiannon.R...
FTVGirls.18.10.30.Mazzy.Tall...
EuroTeenErotica.18.10.29.Min...
EvilAngel.Cum.Filled.Schoolg...
ATKGirlfriends.18.10.31.Kenz...
FootsieBabes.18.10.28.Luna.C...
DevilsFilm.18.10.31.Alexandr...
EvilAngel.Hookup.Hotshot.Sex...
EternalDesire.18.10.31.Alice...
DorcelClub.18.10.29.Cherry.K...
Fitting-Room.18.10.29.Adrian...
BustyArianna.18.09.21.Boob.M...
DevilsFilm.18.10.28.Claudia....
FakeTaxi.18.10.28.Ava.Koxxx....
BustyArianna.18.09.27.Beach....
FTVMilfs.18.10.30.Christy.Lo...
BustyArianna.18.09.15.Ariann...
DontBreakMe.18.10.31.Selena....

3D
Ant-Man.And.The.Wasp.3D.2018...
Ant.Man.and.the.Wasp.3D.2018...
Die.Unglaublichen.2.3D.2018....
Die.Unglaublichen.2.2018.3D....
Die.Unglaublichen.2.2018.3D....
Sharknado.6.The.Last.One.3D....
Deep.Kleine.Helden.der.Tiefs...
Deep.3D.2017.MULTI.COMPLETE....
Detective.Dee.und.die.Legend...
Detective.Dee.und.die.Legend...
Skyscraper.3D.German.DL.AC3....
Ant-Man.and.the.Wasp.2018.3D...
Jurassic.World.Das.gefallene...
Jurassic.World.Das.gefallene...
Best.of.3D.vol.10.-.12.GERMA...

Old_Stuff
Detective.Dee.und.das.Geheim...
Detective.Dee.Und.Der.Fluch....
Ghost.Rider.Spirit.of.Vengea...
Species.IV.Das.Erwachen.2007...
Species.IV.Das.Erwachen.2007...
Hotel.Transsilvanien.2012.Ge...
The.Dead.2010.German.DL.1080...
The.Dead.2.India.2013.German...
Britney.Spears.Live.The.Femm...
Buffy.The.Vampire.Slayer.199...
IMAX.Ride.Around.The.World.2...
Schimanski.-.Duisburg.Ruhror...
Akte.X.S02.German.DTS.DL.108...
How.I.Met.Your.Mother.S02.Ge...
Akte.X.S01.German.DTS.DL.108...

Filme
Oceans.8.2018.German.DL.2160...
The.Walking.Dead.S09.UNCUT.G...
The.Walking.Dead.S09.UNCUT.G...
Modern.Family.S09.GERMAN.DUB...
Legends.of.Tomorrow.S03.GERM...
Xanadu.1980.German.AC3D.DL.7...
Evet.ich.will.2008.German.DT...
Oceans.8.2018.German.DL.2160...
Spill.Toedlicher.Virus.1996....
Cluny.Brown.auf.Freiersfuess...
Exit.Lauf.um.dein.Leben.2006...
Weiblich.ledig.jung.sucht.ak...
Viva.Maria.1965.German.1080p...
Die.Unglaublichen.2.2018.Ger...
Die.Unglaublichen.2.2018.Ger...
ACDC.LIVE.4.Disc.Collectors....
Mars.S02.GERMAN.DL.1080p.HDT...
The.Originals.S05.GERMAN.720...
Supernatural.S13.DL.DD51.Dub...
Supernatural.S13.DL.DD51.Dub...
Modern.Family.S09.GERMAN.DUB...
Power.2014.S05.German.DL.DUB...
Power.2014.S05.German.DL.DUB...
Ray.Donovan.S06.GERMAN.DUBBE...

 
 
Skyscraper.2018.German.720p.BluRay.x264-ENCOUNTERS

Jahr: 2018
Genre: Action
Sprache: Deutsch AC3
Laufzeit: 1h 42mn
Bitrate: 2 674 Kbps
Format: MKV
Größe: 1.91 GiB
Release:

Beschreibung:

Eine neue berufliche Herausforderung in Hongkong wird zum Albtraum für den Kriegsveteranen und ehemaligen FBI-Einsatzchef Will Sawyer (Dwayne Johnson), der im The Pearl, dem mit 240 Stockwerken höchsten Wolkenkratzer der Welt, für Sicherheit sorgen soll. Kaum hat Will sein Amt angetreten, kommt es zur Katastrophe: Die 96. Etage steht plötzlich in Flammen. In den Stockwerken darüber ist seine Familie eingeschlossen, ohne eine realistische Chance auf Rettung. Zu seinem Entsetzen wird er auch noch beschuldigt, die Feuersbrunst selbst entfacht zu haben! Verzweifelt versucht Sawyer, die Brandstifter zu finden, seine Familie aus dem flammenden Inferno zu retten und seine Unschuld zu beweisen.

 

 



Complete name                            : encounters-skyscraper_720p.mkv
Format                                   : Matroska
Format version                           : Version 4 / Version 2
File size                                : 1.91 GiB
Duration                                 : 1h 42mn
Overall bit rate                         : 2 674 Kbps
Encoded date                             : UTC 2018-11-07 15:18:03
Writing application                      : mkvmerge v19.0.0 ('Brave Captain') 64-bit
Writing library                          : libebml v1.3.5 + libmatroska v1.4.8
DURATION                                 : 01:41:24.328000000
NUMBER_OF_FRAMES                         : 82
NUMBER_OF_BYTES                          : 2382
_STATISTICS_WRITING_APP                  : mkvmerge v19.0.0 ('Brave Captain') 64-bit
_STATISTICS_WRITING_DATE_UTC             : 2018-11-07 15:18:03
_STATISTICS_TAGS                         : BPS DURATION NUMBER_OF_FRAMES NUMBER_OF_BYTES

Video
ID                                       : 1
Format                                   : AVC
Format/Info                              : Advanced Video Codec
Format profile                           : High@L4.1
Format settings, CABAC                   : Yes
Format settings, ReFrames                : 5 frames
Codec ID                                 : V_MPEG4/ISO/AVC
Duration                                 : 1h 42mn
Bit rate                                 : 2 173 Kbps
Width                                    : 1 280 pixels
Height                                   : 536 pixels
Display aspect ratio                     : 2.40:1
Frame rate mode                          : Constant
Frame rate                               : 23.976 fps
Color space                              : YUV
Chroma subsampling                       : 4:2:0
Bit depth                                : 8 bits
Scan type                                : Progressive
Bits/(Pixel*Frame)                       : 0.132
Stream size                              : 1.55 GiB (81%)
Writing library                          : x264 core 157 r2935 545de2f
Encoding settings                        : cabac=1 / ref=5 / deblock=1:-1:-1 / analyse=0x3:0x133 / me=umh / subme=7 / psy=1 / psy_rd=1.00:0.15 / mixed_ref=1 / me_range=16 / chroma_me=1 / trellis=1 / 8x8dct=1 / cqm=0 / deadzone=21,11 / fast_pskip=0 / chroma_qp_offset=-3 / threads=16 / lookahead_threads=2 / sliced_threads=0 / nr=0 / decimate=1 / interlaced=0 / bluray_compat=0 / constrained_intra=0 / bframes=3 / b_pyramid=2 / b_adapt=1 / b_bias=0 / direct=1 / weightb=1 / open_gop=0 / weightp=2 / keyint=250 / keyint_min=23 / scenecut=40 / intra_refresh=0 / rc_lookahead=40 / rc=crf / mbtree=1 / crf=20.0 / qcomp=0.60 / qpmin=0 / qpmax=69 / qpstep=4 / ip_ratio=1.40 / aq=1:1.00
Default                                  : Yes
Forced                                   : No

Audio
ID                                       : 2
Format                                   : AC-3
Format/Info                              : Audio Coding 3
Mode extension                           : CM (complete main)
Format settings, Endianness              : Big
Codec ID                                 : A_AC3
Duration                                 : 1h 42mn
Bit rate mode                            : Constant
Bit rate                                 : 448 Kbps
Channel(s)                               : 6 channels
Channel positions                        : Front: L C R, Side: L R, LFE
Sampling rate                            : 48.0 KHz
Bit depth                                : 16 bits
Compression mode                         : Lossy
Stream size                              : 328 MiB (17%)
Language                                 : German
Default                                  : Yes
Forced                                   : No

Text
ID                                       : 3
Format                                   : UTF-8
Codec ID                                 : S_TEXT/UTF8
Codec ID/Info                            : UTF-8 Plain Text
Language                                 : German
Default                                  : Yes
Forced                                   : Yes


Download:
Share Online Share OnlineShare OnlineShare Online
 

Kommentare